War for the Planet of the Apes (2017) HD-TS AC-3

  • Category Movies
  • Type Divx/Xvid
  • Language Russian
  • Total size 1.4 GB
  • Uploaded By mazemaze16
  • Downloads 43038
  • Last checked 3 weeks ago
  • Date uploaded 1 month ago
  • Seeders 3119
  • Leechers 924

War for the Planet of the Apes

ActionAdventureDramaScience Fiction

Caesar and his apes are forced into a deadly conflict with an army of humans led by a ruthless Colonel. After the apes suffer unimaginable losses, Caesar wrestles with his darker instincts and begins his own mythic quest to avenge his kind. As the journey finally brings them face to face, Caesar and the Colonel are pitted against each other in an epic battle that will determine the fate of both their species and the future of the planet.

Infohash : 28140C1ED280F58A2717A2B7D0EE648BB3C00F99



War for the Planet of the Apes (2017) HD-TS AC-3

Format : AVI
Format/Info : Audio Video Interleave
File size : 1.37 GiB
Duration : 2h 5mn
Overall bit rate : 1 553 Kbps
Writing application : VirtualDubMod 1.5.10.2 (build 2540/release)
Writing library : VirtualDubMod build 2540/release

Video
ID : 0
Format : MPEG-4 Visual
Format profile : Advanced [email protected]
Format settings, BVOP : 2
Format settings, QPel : No
Format settings, GMC : No warppoints
Format settings, Matrix : Default (MPEG)
Codec ID : XVID
Codec ID/Hint : XviD
Duration : 2h 5mn
Bit rate : 1 352 Kbps
Width : 720 pixels
Height : 288 pixels
Display aspect ratio : 2.500
Frame rate : 23.976 fps
Color space : YUV
Chroma subsampling : 4:2:0
Bit depth : 8 bits
Scan type : Progressive
Compression mode : Lossy
Bits/(Pixel*Frame) : 0.272
Stream size : 1.19 GiB (87%)
Writing library : XviD 1.2.1 (UTC 2008-12-04)

Audio
ID : 1
Format : AC-3
Format/Info : Audio Coding 3
Mode extension : CM (complete main)
Codec ID : 2000
Duration : 2h 5mn
Bit rate mode : Constant
Bit rate : 192 Kbps
Channel(s) : 2 channels
Channel positions : Front: L R
Sampling rate : 48.0 KHz
Bit depth : 16 bits
Compression mode : Lossy
Stream size : 173 MiB (12%)
Alignment : Split accross interleaves
Interleave, duration : 42 ms (1.00 video frame)
Interleave, preload duration : 500 ms




Files:

  • War for the Planet of the Apes (2017) HD-TS AC-3 _KOSHARA.avi (1.4 GB)

Comments

Code:

  • udp://tracker.ilibr.org:6969/announce
  • udp://9.rarbg.com:2710/announce
  • udp://9.rarbg.to:2710/announce
  • udp://tracker.leechers-paradise.org:6969/announce
  • udp://eddie4.nl:6969/announce
  • udp://ipv4.tracker.harry.lu:80/announce
  • udp://explodie.org:6969/announce
  • udp://p4p.arenabg.com:1337/announce
  • udp://p4p.arenabg.ch:1337/announce
  • udp://tracker.zer0day.to:1337/announce
  • udp://tracker.opentrackr.org:1337/announce
  • udp://tracker.ilibr.org:80/announce
  • udp://tracker.coppersurfer.tk:6969/announce
  • udp://tracker.coppersurfer.tk:6969
  • udp://9.rarbg.me:2710/announce