[REUP] Thor - The Dark World 2013 (1080p Bluray x265 HEVC 10bit A...

  • Category Movies
  • Type HEVC/x265
  • Language English
  • Total size 3.0 GB
  • Uploaded By UTRplus
  • Downloads 335
  • Last checked 17 minutes ago
  • Date uploaded 4 days ago
  • Seeders 25
  • Leechers 12

Infohash : 4B06985D05A503C4A8C7E1AD64CE5C21F627F6A2



Thor: The Dark World 2013 in 1080p, encoded with x265 in HEVC and AAC 5.1 English, with subtitles!
Encoded in 10 bit color at CRF 18.0, from a Blu-ray source, for the highest quality possible.



Media Information

Code:

General
Unique ID : 220579835052810551815964744651669852098 (0xA5F22185A6F5A34BB53E31A591794FC2)
Complete name : Thor - The Dark World 2013 (1080p x265 10bit Tigole).mkv
Format : Matroska
Format version : Version 4 / Version 2
File size : 2.32 GiB
Duration : 1h 52mn
Overall bit rate : 2 965 Kbps
Movie name : MARVEL'S THOR: THE DARK WORLD - BLU-RAY
Encoded date : UTC 2016-06-23 01:25:34
Writing application : mkvmerge v9.2.0 ('Photograph') 64bit
Writing library : libebml v1.3.3 + libmatroska v1.4.4

Video
ID : 1
Format : HEVC
Format/Info : High Efficiency Video Coding
Format profile : Main [email protected]@Main
Codec ID : V_MPEGH/ISO/HEVC
Duration : 1h 52mn
Bit rate : 2 587 Kbps
Width : 1 920 pixels
Height : 800 pixels
Display aspect ratio : 2.40:1
Frame rate mode : Constant
Frame rate : 23.976 (24000/1001) fps
Color space : YUV
Chroma subsampling : 4:2:0
Bit depth : 10 bits
Bits/(Pixel*Frame) : 0.070
Stream size : 2.03 GiB (87%)
Writing library : x265 1.9+200-6098ba3e0cf16b11:[Windows][GCC 5.3.0][64 bit] 10bit
Encoding settings : wpp / ctu=64 / min-cu-size=8 / max-tu-size=32 / tu-intra-depth=1 / tu-inter-depth=1 / me=1 / subme=2 / merange=57 / no-rect / no-amp / max-merge=2 / temporal-mvp / no-early-skip / recursion-skip / rdpenalty=0 / no-tskip / no-tskip-fast / strong-intra-smoothing / no-lossless / no-cu-lossless / no-constrained-intra / no-fast-intra / open-gop / no-temporal-layers / interlace=0 / keyint=250 / min-keyint=23 / scenecut=40 / rc-lookahead=20 / lookahead-slices=5 / bframes=4 / bframe-bias=0 / b-adapt=2 / ref=3 / limit-refs=3 / no-limit-modes / weightp / no-weightb / aq-mode=1 / qg-size=32 / aq-strength=1.00 / cbqpoffs=0 / crqpoffs=0 / rd=3 / psy-rd=2.00 / rdoq-level=0 / psy-rdoq=0.00 / no-rd-refine / signhide / deblock=0:0 / sao / no-sao-non-deblock / b-pyramid / cutree / no-intra-refresh / rc=crf / crf=18.0 / qcomp=0.60 / qpmin=0 / qpmax=51 / qpstep=4 / ipratio=1.40 / pbratio=1.30
Default : Yes
Forced : No

Audio
ID : 2
Format : AAC
Format/Info : Advanced Audio Codec
Format profile : LC
Codec ID : A_AAC
Duration : 1h 52mn
Bit rate : 336 Kbps
Channel(s) : 6 channels
Channel positions : Front: L C R, Side: L R, LFE
Sampling rate : 48.0 KHz
Frame rate : 46.875 fps (1024 spf)
Compression mode : Lossy
Delay relative to video : 20ms
Stream size : 269 MiB (11%)
Language : English
Default : No
Forced : No

Text #1
ID : 3
Format : VobSub
Muxing mode : zlib
Codec ID : S_VOBSUB
Codec ID/Info : Picture based subtitle format used on DVDs
Duration : 1h 51mn
Bit rate : 5 013 bps
Count of elements : 1381
Stream size : 3.99 MiB (0%)
Language : English
Default : No
Forced : No

Text #2
ID : 4
Format : VobSub
Muxing mode : zlib
Codec ID : S_VOBSUB
Codec ID/Info : Picture based subtitle format used on DVDs
Duration : 1h 51mn
Bit rate : 4 228 bps
Count of elements : 1084
Stream size : 3.37 MiB (0%)
Language : Italian
Default : No
Forced : No

Text #3
ID : 5
Format : VobSub
Muxing mode : zlib
Codec ID : S_VOBSUB
Codec ID/Info : Picture based subtitle format used on DVDs
Duration : 1h 45mn
Bit rate : 3 991 bps
Count of elements : 1012
Stream size : 3.00 MiB (0%)
Language : German
Default : No
Forced : No

Text #4
ID : 6
Format : VobSub
Muxing mode : zlib
Codec ID : S_VOBSUB
Codec ID/Info : Picture based subtitle format used on DVDs
Duration : 1h 51mn
Bit rate : 4 170 bps
Count of elements : 1084
Stream size : 3.32 MiB (0%)
Language : Turkish
Default : No
Forced : No

Text #5
ID : 7
Format : VobSub
Muxing mode : zlib
Codec ID : S_VOBSUB
Codec ID/Info : Picture based subtitle format used on DVDs
Duration : 1h 51mn
Bit rate : 10.8 Kbps
Count of elements : 1962
Stream size : 8.61 MiB (0%)
Language : Italian
Default : No
Forced : No

Text #6
ID : 8
Format : VobSub
Muxing mode : zlib
Codec ID : S_VOBSUB
Codec ID/Info : Picture based subtitle format used on DVDs
Duration : 1h 51mn
Bit rate : 11.9 Kbps
Count of elements : 1954
Stream size : 9.51 MiB (0%)
Language : German
Default : No
Forced : No

Text #7
ID : 9
Format : VobSub
Muxing mode : zlib
Codec ID : S_VOBSUB
Codec ID/Info : Picture based subtitle format used on DVDs
Duration : 1h 13mn
Bit rate : 91 bps
Count of elements : 30
Stream size : 49.6 KiB (0%)
Language : English
Default : No
Forced : No

Text #8
ID : 10
Format : VobSub
Muxing mode : zlib
Codec ID : S_VOBSUB
Codec ID/Info : Picture based subtitle format used on DVDs
Duration : 1h 13mn
Bit rate : 100 bps
Count of elements : 31
Stream size : 54.3 KiB (0%)
Language : Italian
Default : No
Forced : No

Text #9
ID : 11
Format : VobSub
Muxing mode : zlib
Codec ID : S_VOBSUB
Codec ID/Info : Picture based subtitle format used on DVDs
Duration : 1h 42mn
Bit rate : 77 bps
Count of elements : 32
Stream size : 58.3 KiB (0%)
Language : German
Default : No
Forced : No

Text #10
ID : 12
Format : VobSub
Muxing mode : zlib
Codec ID : S_VOBSUB
Codec ID/Info : Picture based subtitle format used on DVDs
Duration : 1h 13mn
Bit rate : 188 bps
Count of elements : 30
Stream size : 102 KiB (0%)
Language : Turkish
Default : No
Forced : No

Menu
00:00:00.000 : en:Chapter 01
00:06:14.499 : en:Chapter 02
00:13:06.368 : en:Chapter 03
00:18:41.829 : en:Chapter 04
00:24:57.329 : en:Chapter 05
00:29:08.496 : en:Chapter 06
00:41:34.200 : en:Chapter 07
00:49:41.061 : en:Chapter 08
00:55:56.978 : en:Chapter 09
01:00:09.731 : en:Chapter 10
01:08:13.506 : en:Chapter 11
01:12:40.731 : en:Chapter 12
01:21:35.307 : en:Chapter 13
01:26:22.927 : en:Chapter 14
01:33:59.634 : en:Chapter 15
01:38:32.489 : en:Chapter 16
01:41:50.229 : en:Chapter 17


Source Information

Code:


Files:

Thor - The Dark World 2013 (1080p Bluray x265 HEVC 10bit AAC 5.1 Tigole) Featurettes
  • 'Captain America - The Winter Soldier' Exclusive Look.mkv (41.8 MB)
  • A Brother's Journey - Thor & Loki.mkv (363.3 MB)
  • Deleted & Extended Scenes.mkv (93.7 MB)
  • Gag Reel.mkv (39.3 MB)
  • Marvel One Shot - All Hail the King.mkv (96.8 MB)
  • Scoring 'Thor - The Dark World' .mkv (63.4 MB)
  • Thor - The Dark World 2013 (1080p x265 10bit Tigole).mkv (2.3 GB)

There are currently no comments. Feel free to leave one :)

Code:

  • udp://torrent.gresille.org:80/announce
  • udp://tracker.opentrackr.org:1337/announce
  • udp://tracker.coppersurfer.tk:6969/announce