[REUP] Captain America - The Winter Soldier 2014 (1080p Bluray x2...

  • Category Movies
  • Type HEVC/x265
  • Language English
  • Total size 2.9 GB
  • Uploaded By UTRplus
  • Downloads 232
  • Last checked 20 minutes ago
  • Date uploaded 4 days ago
  • Seeders 11
  • Leechers 6

Infohash : 36BB00BD453942A9F4A81D267FEBDC1ADAB06425



Captain America: The Winter Soldier 2014 in 1080p, encoded with x265 in HEVC and AAC 5.1 English, with subtitles!
Encoded using the time consuming 2 pass, 10 bit color at 2500 kbps, from a Blu-ray source, for the highest quality possible.



Media Information

Code:

General
Unique ID : 244070640515160360307008702274458508776 (0xB79E4BA6A2742933B72DBB064FC25DE8)
Complete name : Captain America - The Winter Soldier 2014 (1080p x265 10bit Tigole).mkv
Format : Matroska
Format version : Version 4 / Version 2
File size : 2.72 GiB
Duration : 2h 15mn
Overall bit rate : 2 868 Kbps
Movie name : MARVEL'S CAPTAIN AMERICA: THE WINTER SOLDIER - BLU-RAY
Encoded date : UTC 2016-06-25 03:40:29
Writing application : mkvmerge v9.2.0 ('Photograph') 64bit
Writing library : libebml v1.3.3 + libmatroska v1.4.4

Video
ID : 1
Format : HEVC
Format/Info : High Efficiency Video Coding
Format profile : Main [email protected]@Main
Codec ID : V_MPEGH/ISO/HEVC
Duration : 2h 15mn
Bit rate : 2 489 Kbps
Width : 1 920 pixels
Height : 800 pixels
Display aspect ratio : 2.40:1
Frame rate mode : Constant
Frame rate : 23.976 (24000/1001) fps
Color space : YUV
Chroma subsampling : 4:2:0
Bit depth : 10 bits
Bits/(Pixel*Frame) : 0.068
Stream size : 2.36 GiB (87%)
Writing library : x265 1.9+200-6098ba3e0cf16b11:[Windows][GCC 5.3.0][64 bit] 10bit
Encoding settings : wpp / ctu=64 / min-cu-size=8 / max-tu-size=32 / tu-intra-depth=1 / tu-inter-depth=1 / me=1 / subme=2 / merange=57 / no-rect / no-amp / max-merge=2 / temporal-mvp / no-early-skip / recursion-skip / rdpenalty=0 / no-tskip / no-tskip-fast / strong-intra-smoothing / no-lossless / no-cu-lossless / no-constrained-intra / no-fast-intra / open-gop / no-temporal-layers / interlace=0 / keyint=250 / min-keyint=23 / scenecut=40 / rc-lookahead=20 / lookahead-slices=5 / bframes=4 / bframe-bias=0 / b-adapt=2 / ref=3 / limit-refs=3 / no-limit-modes / weightp / no-weightb / aq-mode=1 / qg-size=32 / aq-strength=1.00 / cbqpoffs=0 / crqpoffs=0 / rd=3 / psy-rd=2.00 / rdoq-level=0 / psy-rdoq=0.00 / no-rd-refine / signhide / deblock=0:0 / sao / no-sao-non-deblock / b-pyramid / cutree / no-intra-refresh / rc=2 / pass / bitrate=2489 / qcomp=0.60 / qpmin=0 / qpmax=51 / qpstep=4 / cplxblur=20.0 / qblur=0.5 / ipratio=1.40 / pbratio=1.30
Default : Yes
Forced : No

Audio
ID : 2
Format : AAC
Format/Info : Advanced Audio Codec
Format profile : LC
Codec ID : A_AAC
Duration : 2h 15mn
Bit rate : 330 Kbps
Channel(s) : 6 channels
Channel positions : Front: L C R, Side: L R, LFE
Sampling rate : 48.0 KHz
Frame rate : 46.875 fps (1024 spf)
Compression mode : Lossy
Delay relative to video : 20ms
Stream size : 321 MiB (12%)
Language : English
Default : No
Forced : No

Text #1
ID : 3
Format : VobSub
Muxing mode : zlib
Codec ID : S_VOBSUB
Codec ID/Info : Picture based subtitle format used on DVDs
Duration : 2h 8mn
Bit rate : 5 909 bps
Count of elements : 1650
Stream size : 5.45 MiB (0%)
Language : English
Default : No
Forced : No

Text #2
ID : 4
Format : VobSub
Muxing mode : zlib
Codec ID : S_VOBSUB
Codec ID/Info : Picture based subtitle format used on DVDs
Duration : 2h 14mn
Bit rate : 5 236 bps
Count of elements : 1538
Stream size : 5.06 MiB (0%)
Language : Italian
Default : No
Forced : No

Text #3
ID : 5
Format : VobSub
Muxing mode : zlib
Codec ID : S_VOBSUB
Codec ID/Info : Picture based subtitle format used on DVDs
Duration : 2h 8mn
Bit rate : 4 639 bps
Count of elements : 1451
Stream size : 4.28 MiB (0%)
Language : German
Default : No
Forced : No

Text #4
ID : 6
Format : VobSub
Muxing mode : zlib
Codec ID : S_VOBSUB
Codec ID/Info : Picture based subtitle format used on DVDs
Duration : 2h 14mn
Bit rate : 5 169 bps
Count of elements : 1540
Stream size : 4.99 MiB (0%)
Language : Turkish
Default : No
Forced : No

Text #5
ID : 7
Format : VobSub
Muxing mode : zlib
Codec ID : S_VOBSUB
Codec ID/Info : Picture based subtitle format used on DVDs
Duration : 2h 15mn
Bit rate : 12.3 Kbps
Count of elements : 2610
Stream size : 11.9 MiB (0%)
Language : Italian
Default : No
Forced : No

Text #6
ID : 8
Format : VobSub
Muxing mode : zlib
Codec ID : S_VOBSUB
Codec ID/Info : Picture based subtitle format used on DVDs
Duration : 2h 15mn
Bit rate : 13.2 Kbps
Count of elements : 2592
Stream size : 12.8 MiB (0%)
Language : German
Default : No
Forced : No

Text #7
ID : 9
Format : VobSub
Muxing mode : zlib
Codec ID : S_VOBSUB
Codec ID/Info : Picture based subtitle format used on DVDs
Duration : 1h 12mn
Bit rate : 113 bps
Count of elements : 28
Stream size : 60.3 KiB (0%)
Language : English
Default : No
Forced : No

Text #8
ID : 10
Format : VobSub
Muxing mode : zlib
Codec ID : S_VOBSUB
Codec ID/Info : Picture based subtitle format used on DVDs
Duration : 2h 12mn
Bit rate : 91 bps
Count of elements : 36
Stream size : 89.1 KiB (0%)
Language : Italian
Default : No
Forced : No

Text #9
ID : 11
Format : VobSub
Muxing mode : zlib
Codec ID : S_VOBSUB
Codec ID/Info : Picture based subtitle format used on DVDs
Duration : 1h 12mn
Bit rate : 123 bps
Count of elements : 31
Stream size : 65.5 KiB (0%)
Language : German
Default : No
Forced : No

Text #10
ID : 12
Format : VobSub
Muxing mode : zlib
Codec ID : S_VOBSUB
Codec ID/Info : Picture based subtitle format used on DVDs
Duration : 1h 12mn
Bit rate : 145 bps
Count of elements : 28
Stream size : 77.0 KiB (0%)
Language : Turkish
Default : No
Forced : No

Menu
00:00:00.000 : en:Chapter 01
00:03:28.666 : en:Chapter 02
00:13:31.727 : en:Chapter 03
00:17:57.868 : en:Chapter 04
00:22:25.302 : en:Chapter 05
00:33:20.415 : en:Chapter 06
00:41:27.276 : en:Chapter 07
00:51:37.302 : en:Chapter 08
00:58:23.958 : en:Chapter 09
01:07:40.347 : en:Chapter 10
01:16:22.202 : en:Chapter 11
01:24:43.078 : en:Chapter 12
01:32:17.698 : en:Chapter 13
01:37:06.612 : en:Chapter 14
01:49:13.088 : en:Chapter 15
01:55:03.730 : en:Chapter 16
02:01:11.055 : en:Chapter 17
02:06:22.241 : en:Chapter 18


Source Information

Code:


Files:

Captain America - The Winter Soldier 2014 (1080p Bluray x265 HEVC 10bit AAC 5.1 Tigole)
  • Captain America - The Winter Soldier 2014 (1080p x265 10bit Tigole).mkv (2.7 GB)
  • Featurettes
    • Deleted and Extended Scenes.mkv (26.7 MB)
    • Gag Reel.mkv (14.2 MB)
    • On Set with Anthony Mackie - Cut the Check!.mkv (22.2 MB)
    • On the Front Line - An Inside Look at Captain America's Battlegrounds.mkv (117.0 MB)
    • Steve Rogers' Notebook.mkv (25.3 MB)

There are currently no comments. Feel free to leave one :)

Code:

  • udp://torrent.gresille.org:80/announce
  • udp://tracker.opentrackr.org:1337/announce
  • udp://tracker.coppersurfer.tk:6969/announce