[REUP] Guardians of the Galaxy 2014 (1080p Bluray x265 HEVC 10bit...

  • Category Movies
  • Type HEVC/x265
  • Language English
  • Total size 3.1 GB
  • Uploaded By UTRplus
  • Downloads 355
  • Last checked 14 minutes ago
  • Date uploaded 4 days ago
  • Seeders 75
  • Leechers 17

Infohash : 7F901942AFD00724BD6A048D7430702BE088FC28



Guardians of the Galaxy 2014 in 1080p, encoded with x265 in HEVC and AAC 5.1 English, with subtitles!
Encoded in 10 bit color at CRF 18.0, from a Blu-ray source, for the highest quality possible.



Media Information

Code:

General
Unique ID : 252916199665587934075723239150807522044 (0xBE45E363697CE16797AB446FD8959AFC)
Complete name : Guardians of the Galaxy 2014 (1080p x265 10bit Tigole).mkv
Format : Matroska
Format version : Version 4 / Version 2
File size : 2.71 GiB
Duration : 2h 0mn
Overall bit rate : 3 210 Kbps
Movie name : MARVEL'S GUARDIANS OF THE GALAXY - BLU-RAY
Encoded date : UTC 2016-06-26 19:22:17
Writing application : mkvmerge v9.2.0 ('Photograph') 64bit
Writing library : libebml v1.3.3 + libmatroska v1.4.4

Video
ID : 1
Format : HEVC
Format/Info : High Efficiency Video Coding
Format profile : Main [email protected]@Main
Codec ID : V_MPEGH/ISO/HEVC
Duration : 2h 0mn
Bit rate : 2 815 Kbps
Width : 1 920 pixels
Height : 800 pixels
Display aspect ratio : 2.40:1
Frame rate mode : Constant
Frame rate : 23.976 (24000/1001) fps
Color space : YUV
Chroma subsampling : 4:2:0
Bit depth : 10 bits
Bits/(Pixel*Frame) : 0.076
Stream size : 2.38 GiB (88%)
Writing library : x265 1.9+200-6098ba3e0cf16b11:[Windows][GCC 5.3.0][64 bit] 10bit
Encoding settings : wpp / ctu=64 / min-cu-size=8 / max-tu-size=32 / tu-intra-depth=1 / tu-inter-depth=1 / me=1 / subme=2 / merange=57 / no-rect / no-amp / max-merge=2 / temporal-mvp / no-early-skip / recursion-skip / rdpenalty=0 / no-tskip / no-tskip-fast / strong-intra-smoothing / no-lossless / no-cu-lossless / no-constrained-intra / no-fast-intra / open-gop / no-temporal-layers / interlace=0 / keyint=250 / min-keyint=23 / scenecut=40 / rc-lookahead=20 / lookahead-slices=5 / bframes=4 / bframe-bias=0 / b-adapt=2 / ref=3 / limit-refs=3 / no-limit-modes / weightp / no-weightb / aq-mode=1 / qg-size=32 / aq-strength=1.00 / cbqpoffs=0 / crqpoffs=0 / rd=3 / psy-rd=2.00 / rdoq-level=0 / psy-rdoq=0.00 / no-rd-refine / signhide / deblock=0:0 / sao / no-sao-non-deblock / b-pyramid / cutree / no-intra-refresh / rc=crf / crf=18.0 / qcomp=0.60 / qpmin=0 / qpmax=51 / qpstep=4 / ipratio=1.40 / pbratio=1.30
Default : Yes
Forced : No

Audio
ID : 2
Format : AAC
Format/Info : Advanced Audio Codec
Format profile : LC
Codec ID : A_AAC
Duration : 2h 0mn
Bit rate : 333 Kbps
Channel(s) : 6 channels
Channel positions : Front: L C R, Side: L R, LFE
Sampling rate : 48.0 KHz
Frame rate : 46.875 fps (1024 spf)
Compression mode : Lossy
Delay relative to video : 20ms
Stream size : 288 MiB (10%)
Language : English
Default : No
Forced : No

Text #1
ID : 3
Format : VobSub
Muxing mode : zlib
Codec ID : S_VOBSUB
Codec ID/Info : Picture based subtitle format used on DVDs
Duration : 2h 0mn
Bit rate : 5 994 bps
Count of elements : 1667
Stream size : 5.16 MiB (0%)
Language : English
Default : No
Forced : No

Text #2
ID : 4
Format : VobSub
Muxing mode : zlib
Codec ID : S_VOBSUB
Codec ID/Info : Picture based subtitle format used on DVDs
Duration : 2h 0mn
Bit rate : 5 182 bps
Count of elements : 1426
Stream size : 4.47 MiB (0%)
Language : Italian
Default : No
Forced : No

Text #3
ID : 5
Format : VobSub
Muxing mode : zlib
Codec ID : S_VOBSUB
Codec ID/Info : Picture based subtitle format used on DVDs
Duration : 2h 0mn
Bit rate : 4 443 bps
Count of elements : 1407
Stream size : 3.83 MiB (0%)
Language : German
Default : No
Forced : No

Text #4
ID : 6
Format : VobSub
Muxing mode : zlib
Codec ID : S_VOBSUB
Codec ID/Info : Picture based subtitle format used on DVDs
Duration : 2h 0mn
Bit rate : 5 004 bps
Count of elements : 1423
Stream size : 4.31 MiB (0%)
Language : Turkish
Default : No
Forced : No

Text #5
ID : 7
Format : VobSub
Muxing mode : zlib
Codec ID : S_VOBSUB
Codec ID/Info : Picture based subtitle format used on DVDs
Duration : 2h 0mn
Bit rate : 13.5 Kbps
Count of elements : 2316
Stream size : 11.7 MiB (0%)
Language : English
Default : No
Forced : No

Text #6
ID : 8
Format : VobSub
Muxing mode : zlib
Codec ID : S_VOBSUB
Codec ID/Info : Picture based subtitle format used on DVDs
Duration : 2h 0mn
Bit rate : 11.6 Kbps
Count of elements : 2261
Stream size : 9.97 MiB (0%)
Language : Italian
Default : No
Forced : No

Text #7
ID : 9
Format : VobSub
Muxing mode : zlib
Codec ID : S_VOBSUB
Codec ID/Info : Picture based subtitle format used on DVDs
Duration : 2h 0mn
Bit rate : 12.3 Kbps
Count of elements : 2253
Stream size : 10.6 MiB (0%)
Language : German
Default : No
Forced : No

Text #8
ID : 10
Format : VobSub
Muxing mode : zlib
Codec ID : S_VOBSUB
Codec ID/Info : Picture based subtitle format used on DVDs
Duration : 1h 53mn
Bit rate : 51 bps
Count of elements : 12
Stream size : 43.0 KiB (0%)
Language : Italian
Default : No
Forced : No

Text #9
ID : 11
Format : VobSub
Muxing mode : zlib
Codec ID : S_VOBSUB
Codec ID/Info : Picture based subtitle format used on DVDs
Duration : 4mn 4s
Bit rate : 123 bps
Count of elements : 2
Stream size : 3.68 KiB (0%)
Language : German
Default : No
Forced : No

Text #10
ID : 12
Format : VobSub
Muxing mode : zlib
Codec ID : S_VOBSUB
Codec ID/Info : Picture based subtitle format used on DVDs
Duration : 1h 50mn
Bit rate : 24 bps
Count of elements : 6
Stream size : 19.8 KiB (0%)
Language : Turkish
Default : No
Forced : No

Menu
00:00:00.000 : en:Chapter 01
00:04:05.703 : en:Chapter 02
00:11:21.806 : en:Chapter 03
00:15:21.712 : en:Chapter 04
00:20:54.419 : en:Chapter 05
00:27:11.212 : en:Chapter 06
00:33:58.828 : en:Chapter 07
00:44:28.248 : en:Chapter 08
00:50:53.008 : en:Chapter 09
00:55:17.564 : en:Chapter 10
00:59:45.206 : en:Chapter 11
01:06:06.921 : en:Chapter 12
01:14:46.023 : en:Chapter 13
01:22:20.644 : en:Chapter 14
01:26:29.726 : en:Chapter 15
01:30:23.876 : en:Chapter 16
01:35:58.377 : en:Chapter 17
01:40:46.749 : en:Chapter 18
01:47:35.365 : en:Chapter 19
01:53:16.623 : en:Chapter 20
02:00:10.786 : en:Chapter 21


Source Information

Code:


Files:

Guardians of the Galaxy 2014 (1080p Bluray x265 HEVC 10bit AAC 5.1 Tigole) Featurettes
  • Deleted and Extended Scenes.mkv (35.3 MB)
  • Gag Reel.mkv (32.8 MB)
  • Guide to the Galaxy with James Gunn.mkv (241.3 MB)
  • The Intergalactic Visual Effects.mkv (83.0 MB)
  • Guardians of the Galaxy 2014 (1080p x265 10bit Tigole).mkv (2.7 GB)

Comments

Code:

  • udp://torrent.gresille.org:80/announce
  • udp://tracker.opentrackr.org:1337/announce
  • udp://tracker.coppersurfer.tk:6969/announce