Guardians of the Galaxy Vol 2 (2017) 1920 x 800 (1080p) x264 Phun...

  • Category Movies
  • Type HD
  • Language English
  • Total size 1.1 GB
  • Uploaded By PhunPsyz
  • Downloads 297
  • Last checked 13 minutes ago
  • Date uploaded 3 days ago
  • Seeders 10
  • Leechers 9

Guardians of the Galaxy Vol. 2

ActionAdventureScience Fiction

The Guardians must fight to keep their newfound family together as they unravel the mysteries of Peter Quill's true parentage.

Infohash : 5E87DDCC47B75320FBB1A7BA337BF000F41C0A96

x265 Size, x264 Compatibility, HD Quality

www.imdb.com/title/tt3896198/

The Guardians must fight to keep their newfound family together as they unravel the mystery of Peter Quill's true parentage.

Source: SPARKS (9.83 GB)












Format : MPEG-4
Format profile : Base Media / Version 2
Codec ID : mp42 (isom/iso2/avc1/mp41)
File size : 1.09 GiB
Duration : 2 h 15 min
Overall bit rate mode : Variable
Overall bit rate : 1 154 kb/s
Writing application : HandBrake 1.0.7 2017040900

Video
ID : 1
Format : AVC
Format/Info : Advanced Video Codec
Format profile : [email protected]
Format settings, CABAC : Yes
Format settings, ReFrames : 8 frames
Codec ID : avc1
Codec ID/Info : Advanced Video Coding
Duration : 2 h 15 min
Bit rate : 987 kb/s
Width : 1 920 pixels
Height : 808 pixels
Display aspect ratio : 2.40:1
Frame rate mode : Variable
Frame rate : 23.976 (24000/1001) FPS
Minimum frame rate : 23.974 FPS
Maximum frame rate : 23.981 FPS
Color space : YUV
Chroma subsampling : 4:2:0
Bit depth : 8 bits
Scan type : Progressive
Bits/(Pixel*Frame) : 0.027
Stream size : 959 MiB (86%)
Writing library : x264 core 148 r2708 86b7198
Color range : Limited
Color primaries : BT.709
Transfer characteristics : BT.709
Matrix coefficients : BT.709
Menus : 3

Audio
ID : 2
Format : AAC
Format/Info : Advanced Audio Codec
Format profile : LC
Codec ID : 40
Duration : 2 h 15 min
Bit rate mode : Variable
Bit rate : 160 kb/s
Channel(s) : 2 channels
Channel positions : Front: L R
Sampling rate : 48.0 kHz
Frame rate : 46.875 FPS (1024 spf)
Compression mode : Lossy
Stream size : 155 MiB (14%)
Title : Stereo / Stereo
Language : English
Default : Yes
Alternate group : 1
Menus : 3

Menu
ID : 3
Codec ID : text
Duration : 2 h 15 min
Language : English
Bit rate mode : CBR
Menu For : 1,2
00:00:00.000 : 00:00:00.000
00:09:56.596 : 00:09:56.179
00:15:10.243 : 00:15:10.118
00:22:14.667 : 00:22:14.083
00:32:33.952 : 00:32:33.702
00:36:52.877 : 00:36:52.127
00:42:29.213 : 00:42:29.172
00:48:04.215 : 00:48:03.464
00:53:19.196 : 00:53:18.904
00:58:46.189 : 00:58:45.939
01:05:53.283 : 01:05:52.240
01:11:13.603 : 01:11:12.435
01:18:44.720 : 01:18:43.594
01:23:55.697 : 01:23:55.322
01:30:25.420 : 01:30:24.753
01:39:36.637 : 01:39:36.179
01:47:06.420 : 01:47:06.211
01:54:22.856 : 01:54:21.605
01:58:53.793 : 01:58:53.710
02:07:14.293 : 02:07:13.459

Files:

Guardians of the Galaxy Vol 2 (2017) 1920 x 800 (1080p) x264 Phun Psyz
  • katcr.co.txt (0.0 KB)
  • Torrent_downloaded_from_Demonoid_-_www.demonoid.pw_.txt (0.1 KB)
  • Guardians of the Galaxy Vol 2 (2017).mp4 (1.1 GB)

There are currently no comments. Feel free to leave one :)

Code:

  • udp://tracker.pirateparty.gr:6969/announce
  • http://pow7.com:80/announce
  • udp://shadowshq.yi.org:6969/announce
  • udp://tracker.tiny-vps.com:6969/announce
  • udp://tracker.opentrackr.org:1337/announce
  • http://mgtracker.org:6969/announce
  • udp://inferno.demonoid.pw:3397/announce
  • udp://tracker.coppersurfer.tk:6969/announce
  • udp://tracker.leechers-paradise.org:6969/announce
  • udp://eddie4.nl:6969/announce
  • udp://tracker.piratepublic.com:1337/announce
  • udp://tracker.grepler.com:6969/announce