The Wall (2017) 1920 x 800 (1080p) x264 Phun Psyz

  • Category Movies
  • Type HD
  • Language English
  • Total size 917.0 MB
  • Uploaded By PhunPsyz
  • Downloads 807
  • Last checked 15 minutes ago
  • Date uploaded 3 days ago
  • Seeders 45
  • Leechers 17

The Wall

DramaThrillerWar

An American sniper and his spotter engage in a deadly cat-and-mouse game with an Iraqi sniper.

Infohash : B8DB5A51F3297CD4138324E68392432BC754C176

x265 Size, x264 Compatibility, HD Quality

www.imdb.com/title/tt4218696/

Two American Soldiers are trapped by a lethal sniper, with only an unsteady wall between them.










Format : MPEG-4
Format profile : Base Media / Version 2
Codec ID : mp42 (isom/iso2/avc1/mp41)
File size : 917 MiB
Duration : 1 h 29 min
Overall bit rate mode : Variable
Overall bit rate : 1 426 kb/s
Writing application : HandBrake 1.0.1 2016122900

Video
ID : 1
Format : AVC
Format/Info : Advanced Video Codec
Format profile : [email protected]
Format settings, CABAC : Yes
Format settings, ReFrames : 8 frames
Codec ID : avc1
Codec ID/Info : Advanced Video Coding
Duration : 1 h 29 min
Bit rate : 1 259 kb/s
Width : 1 920 pixels
Height : 800 pixels
Display aspect ratio : 2.40:1
Frame rate mode : Variable
Frame rate : 23.976 (24000/1001) FPS
Minimum frame rate : 23.974 FPS
Maximum frame rate : 23.981 FPS
Color space : YUV
Chroma subsampling : 4:2:0
Bit depth : 8 bits
Scan type : Progressive
Bits/(Pixel*Frame) : 0.034
Stream size : 810 MiB (88%)
Writing library : x264 core 148 r2708 86b7198
Color range : Limited
Color primaries : BT.709
Transfer characteristics : BT.709
Matrix coefficients : BT.709
Menus : 3

Audio
ID : 2
Format : AAC
Format/Info : Advanced Audio Codec
Format profile : LC
Codec ID : 40
Duration : 1 h 29 min
Bit rate mode : Variable
Bit rate : 160 kb/s
Channel(s) : 2 channels
Channel positions : Front: L R
Sampling rate : 48.0 kHz
Frame rate : 46.875 FPS (1024 spf)
Compression mode : Lossy
Stream size : 103 MiB (11%)
Title : Stereo / Stereo
Language : English
Default : Yes
Alternate group : 1
Menus : 3

Menu
ID : 3
Codec ID : text
Duration : 1 h 29 min
Language : English
Bit rate mode : CBR
Menu For : 1,2
00:00:00.000 : 00:00:00.000
00:04:02.909 : 00:04:02.117
00:09:59.265 : 00:09:58.223
00:16:57.016 : 00:16:55.932
00:21:46.639 : 00:21:46.597
00:25:49.548 : 00:25:48.922
00:33:12.657 : 00:33:11.698
00:39:58.396 : 00:39:57.645
00:45:40.071 : 00:45:39.904
00:49:36.307 : 00:49:36.223
00:56:14.037 : 00:56:13.620
01:01:13.003 : 01:01:12.752
01:07:28.044 : 01:07:27.627
01:13:20.396 : 01:13:19.103
01:17:44.660 : 01:17:43.576
01:25:37.132 : 01:25:36.715

Files:

The Wall (2017) 1920 x 800 (1080p) x264 Phun Psyz
  • katcr.co.txt (0.0 KB)
  • Torrent_downloaded_from_Demonoid_-_www.demonoid.pw_.txt (0.1 KB)
  • The Wall (2017) 1920 x 800 (1080p) x264 Phun Psyz.mp4 (917.0 MB)

There are currently no comments. Feel free to leave one :)

Code:

  • udp://tracker.pirateparty.gr:6969/announce
  • udp://tracker.opentrackr.org:1337/announce
  • http://mgtracker.org:6969/announce
  • udp://shadowshq.yi.org:6969/announce
  • udp://inferno.demonoid.pw:3397/announce
  • udp://tracker.tiny-vps.com:6969/announce
  • udp://tracker.coppersurfer.tk:6969/announce
  • udp://public.popcorn-tracker.org:6969/announce
  • udp://tracker.leechers-paradise.org:6969/announce
  • udp://eddie4.nl:6969/announce
  • udp://tracker.zer0day.to:1337/announce
  • udp://tracker.grepler.com:6969/announce